Subcategories

Kraftwerk - Die Mensch-Maschine (1978) [Non-Remastered, German Version]

Posted By: gribovar
Kraftwerk - Die Mensch-Maschine (1978) [Non-Remastered, German Version]

Kraftwerk - Die Mensch-Maschine (1978) [Non-Remastered, German Version]
EAC Rip | WavPack (image+.cue+log) - 203 MB | MP3 CBR 320 kbps (LAME 3.93) - 102 MB | Covers (15 MB) included
Genre: Electronic, Synth-pop | RAR 3% Rec. | Label: EMI (CDP 564-7 46131 2)

Die Mensch-Maschine is closer to the sound and style that would define early new wave electro-pop - less minimalistic in its arrangements and more complex and danceable in its underlying rhythms. Like its predecessor, Trans-Europe Express, there is the feel of a divided concept album, with some songs devoted to science fiction-esque links between humans and technology, often with electronically processed vocals ("Die Roboter," "Spacelab," and the title track); others take the glamour of urbanization as their subject ("Neonlicht" and "Metropolis"). Plus, there's "Das Modell," a character sketch that falls under the latter category but takes a more cynical view of the title character's glamorous lifestyle. More pop-oriented than any of their previous work, the sound of Die Mensch-Maschine - in particular among Kraftwerk's oeuvre - had a tremendous impact on the cold, robotic synth pop of artists like Gary Numan, as well as Britain's later new romantic movement.


Tracklist:
01. Die Roboter
02. Spacelab
03. Metropolis
04. Das Modell
05. Neonlicht
06. Die Mensch-Maschine

Total time: 36:31

Exact Audio Copy V1.0 beta 3 from 29. August 2011

EAC extraction logfile from 12. April 2013, 16:25

Kraftwerk / Die Mensch-Maschine [EMI CDP 564-7 46131 2]

Used drive : Optiarc DVD RW AD-7200S Adapter: 5 ID: 1

Read mode : Secure
Utilize accurate stream : Yes
Defeat audio cache : Yes
Make use of C2 pointers : No

Read offset correction : 48
Overread into Lead-In and Lead-Out : No
Fill up missing offset samples with silence : Yes
Delete leading and trailing silent blocks : No
Null samples used in CRC calculations : Yes
Used interface : Installed external ASPI interface

Used output format : User Defined Encoder
Selected bitrate : 1024 kBit/s
Quality : High
Add ID3 tag : No
Command line compressor : D:\Program Files (x86)\Exact Audio Copy\wavpack.exe
Additional command line options : -hlmx2 %source% %dest%


TOC of the extracted CD

Track | Start | Length | Start sector | End sector
––––––––––––––––––––––––––––-
1 | 0:00.00 | 6:14.25 | 0 | 28074
2 | 6:14.25 | 6:02.45 | 28075 | 55269
3 | 12:16.70 | 6:03.17 | 55270 | 82511
4 | 18:20.12 | 3:43.55 | 82512 | 99291
5 | 22:03.67 | 9:00.58 | 99292 | 139849
6 | 31:04.50 | 5:26.25 | 139850 | 164324


Range status and errors

Selected range

Filename D:\eac\Kraftwerk\Kraftwerk - Die Mensch-Maschine [EMI CDP 564-7 46131 2].wav

Peak level 76.7 %
Extraction speed 3.5 X
Range quality 100.0 %
Test CRC 2AD63379
Copy CRC 2AD63379
Copy OK

No errors occurred


AccurateRip summary

Track 1 accurately ripped (confidence 7) [E76F864C] (AR v2)
Track 2 accurately ripped (confidence 7) [FE75217B] (AR v2)
Track 3 accurately ripped (confidence 7) [9D5B4BBE] (AR v2)
Track 4 accurately ripped (confidence 7) [D5D22371] (AR v2)
Track 5 accurately ripped (confidence 7) [DBEBC834] (AR v2)
Track 6 accurately ripped (confidence 7) [5DCC6E6B] (AR v2)

All tracks accurately ripped

End of status report

–– CUETools DB Plugin V2.1.3

[CTDB TOCID: OmMJjb58ZcNTJ_cd5Q1DLMismjM-] found, Submit result: OmMJjb58ZcNTJ_cd5Q1DLMismjM- has been confirmed
[07867dca] (226/229) Accurately ripped
[003ea83e] (001/229) No match
[ea3902a3] (001/229) No match
[085711ef] (001/229) No match


==== Log checksum 92A8EDE61421BDA5E174440F512C619E7F9C2541FE6787E83BEC1A2A72E668B6 ====

[CUETools log; Date: 24.01.2020 0:40:13; Version: 2.1.4]
[CTDB TOCID: OmMJjb58ZcNTJ_cd5Q1DLMismjM-] found.
Track | CTDB Status
1 | (630/651) Accurately ripped, or (2/651) differs in 3 samples @05:15:08
2 | (637/651) Accurately ripped
3 | (639/651) Accurately ripped
4 | (641/651) Accurately ripped
5 | (630/651) Accurately ripped, or (2/651) differs in 140 samples @00:09:37-00:09:38,00:09:51,00:10:03,00:10:17,00:10:44,00:10:57-00:10:58,00:10:71-00:10:72,00:11:10,00:11:23-00:11:24,00:11:37,00:11:50-00:11:51,00:12:03-00:12:04,00:12:17,00:12:30,00:12:44,00:12:57-00:12:58,00:12:71-00:12:72
6 | (632/651) Accurately ripped
[AccurateRip ID: 0008afec-002e5a94-48088f06] found.
Track [ CRC | V2 ] Status
01 [2b251f93|e76f864c] (064+069/458) Accurately ripped
02 [ae910c4c|fe75217b] (064+069/457) Accurately ripped
03 [d73efca1|9d5b4bbe] (062+069/449) Accurately ripped
04 [0e2e00a3|d5d22371] (065+070/462) Accurately ripped
05 [aedb1e0e|dbebc834] (063+069/455) Accurately ripped
06 [9800127b|5dcc6e6b] (063+069/452) Accurately ripped
Offsetted by -932:
01 [182a50e0] (003/458) Accurately ripped
02 [0b2fafa5] (003/457) Accurately ripped
03 [f5eb1ed7] (003/449) Accurately ripped
04 [cbe263db] (003/462) Accurately ripped
05 [be68770c] (003/455) Accurately ripped
06 [0ead6550] (003/452) Accurately ripped
Offsetted by -670:
01 [cdfe827f] (007/458) Accurately ripped
02 [af8b766f] (007/457) Accurately ripped
03 [21761380] (007/449) Accurately ripped
04 [8496a342] (007/462) Accurately ripped
05 [09480a68] (007/455) Accurately ripped
06 [e8e6e545] (007/452) Accurately ripped
Offsetted by -268:
01 [6edb3eab] (144/458) Accurately ripped
02 [425f864a] (145/457) Accurately ripped
03 [6d5da8e9] (137/449) Accurately ripped
04 [17f12a94] (141/462) Accurately ripped
05 [21234082] (137/455) Accurately ripped
06 [24ca0e78] (134/452) Accurately ripped
Offsetted by -2015:
01 [e60e9f39] (000/458) No match (V2 was not tested)
02 [724c0897] (000/457) No match (V2 was not tested)
03 [82fc15cc] (000/449) No match (V2 was not tested)
04 [28ddfee9] (000/462) No match (V2 was not tested)
05 [dd6aa91b] (000/455) No match (V2 was not tested)
06 [85b93f55] (000/452) No match (V2 was not tested)
Offsetted by -1384:
01 [aaf2f95e] (000/458) No match (V2 was not tested)
02 [eea94c69] (000/457) No match (V2 was not tested)
03 [a7e6ff90] (000/449) No match (V2 was not tested)
04 [b53bc641] (000/462) No match (V2 was not tested)
05 [341e5964] (000/455) No match (V2 was not tested)
06 [2ecfa84b] (000/452) No match (V2 was not tested)
Offsetted by -316:
01 [90aedc22] (000/458) No match (V2 was not tested)
02 [262af94b] (000/457) No match (V2 was not tested)
03 [20307d5a] (000/449) No match (V2 was not tested)
04 [8652ccdb] (000/462) No match (V2 was not tested)
05 [a44f89d3] (000/455) No match (V2 was not tested)
06 [7989c7b5] (000/452) No match (V2 was not tested)
Offsetted by -262:
01 [70fffc21] (000/458) No match (V2 was not tested)
02 [abc1b699] (000/457) No match (V2 was not tested)
03 [6256b633] (002/449) Accurately ripped
04 [7a75a0f4] (002/462) Accurately ripped
05 [5162be43] (002/455) Accurately ripped
06 [a1991cae] (000/452) No match (V2 was not tested)

Track Peak [ CRC32 ] [W/O NULL] [ LOG ]
– 76,7 [2AD63379] [BD497E62] CRC32
01 65,5 [FF5E022B] [07BF9B14]
02 56,8 [471068E8] [8F312CCE]
03 58,7 [B8456C30] [C1DB5160]
04 74,1 [71AE555D] [36DE5A87]
05 76,7 [685F851B] [10774EBB]
06 50,9 [BFA63C2D] [C89FA592]

Thanks to taurus66